#TITLE:Dr. Love;
#SUBTITLE:(DMX ReMix);
#ARTIST:Baby Weapon;
#TITLETRANSLIT:;
#SUBTITLETRANSLIT:;
#ARTISTTRANSLIT:;
#CREDIT:;
#BANNER:Dr.Love-banner.png;
#BACKGROUND:Dr.Love-bg.png;
#LYRICSPATH:;
#CDTITLE:;
#MUSIC:Dr Love.mp3;
#MUSICLENGTH:97.810;
#OFFSET:-0.580;
#SAMPLESTART:8.305;
#SAMPLELENGTH:12.000;
#SELECTABLE:YES;
#BPMS:0.000=123.000;
#STOPS:;
#BGCHANGES:;
#FIRSTBEAT:16.000;

#LASTBEAT:194.000;

#SONGFILENAME:Songs/ERICth MIX 2nd Style/Dr Love/drlove.sm;

#HASMUSIC:1;

#HASBANNER:1;


//---------------dance-single - MANIAC----------------
#NOTES:
     dance-single:
     MANIAC:
     hard:
     6:
     0.327,0.347,0.041,0.000,0.005,220.000,4.000,0.000,0.000,0.000:





0000
0000
0000
0000
,
0000
0000
0000
0000
,
0000
0000
0000
0000
,
0000
0000
0000
0000
,
1010
0000
0000
0001
1000
0000
0000
0000
,
0101
0000
0000
0010
0100
0000
0000
0000
,
1001
0000
0000
0100
0010
0000
0000
0000
,
1100
0000
0000
0001
1000
0000
0000
0000
,
1000
0001
1000
0100
,
1000
0010
1000
0100
1000
0000
0000
0000
,
0001
0010
0001
0000
0100
0000
0001
0000
,
1000
0001
0010
0001
0100
0000
0100
0000
,
0001
1000
0001
0000
0100
0000
0100
0000
,
0010
1000
0010
0000
0001
0000
0000
0000
,
0001
1000
0100
0010
,
0010
1000
0100
0000
0100
0000
0100
0000
,
0010
0010
0100
0000
0000
0000
0001
0000
,
0100
0100
1000
0000
0000
0000
0001
0000
,
0010
0010
1000
0000
0000
0000
0100
0000
,
0001
0001
0010
0000
0000
0000
0001
1000
,
0001
0000
0100
0000
0000
0000
0010
0010
,
1000
0001
0000
0100
,
1000
0000
0010
0000
1000
0000
0001
1000
,
0001
0000
0000
0000
,
1000
0001
0001
0000
1000
0000
0001
0000
,
1000
0100
0010
0100
1000
0000
0001
1000
,
0000
0000
0001
1000
0100
0010
0100
0000
,
1000
0001
0010
0001
1000
0000
0100
0010
,
0100
0000
0001
1000
0010
0000
0000
0000
,
0001
1000
0010
0100
0001
0000
0010
0001
,
0000
0010
0000
1000
0100
0010
0001
0000
,
1000
0100
0001
0100
1000
0000
0010
1000
,
0100
1000
0010
1000
0001
0010
0001
0100
,
0001
0010
0010
0001
1000
0000
0000
0000
,
1000
0001
0100
0010
1000
0001
0010
0000
,
0000
0000
0100
0000
0000
1000
0000
0000
0001
0000
0000
0000
1000
0000
0100
0000
,
1000
0000
0010
1000
0100
0000
0001
0000
,
0100
1000
0001
0000
0100
1000
0001
0000
,
0010
0001
0100
0001
0010
0000
0001
0000
,
1000
0001
0010
0001
0100
0001
1000
0000
,
0010
0000
1000
0001
1000
0000
0100
0000
,
1000
0000
0001
1000
0001
0000
0010
0000
,
0100
0000
1000
0001
0100
0000
0010
0000
,
1000
0000
0100
1000
0000
0001
0010
0000
,
0100
0000
0001
1000
0100
0000
0010
0000
,
1000
0000
0001
0100
0010
0000
1000
0000
,
0001
1000
0100
1000
0001
0000
1000
0000
,
0001
0000
0100
0010
1000
0000
0100
0000
,
1000
0000
0000
0001
1000
0000
0000
0000;

//---------------dance-single - ANOTHER----------------
#NOTES:
     dance-single:
     ANOTHER:
     medium:
     3:
     0.212,0.273,0.031,0.082,0.000,134.000,3.000,8.000,0.000,0.000:





0000
0000
0000
0000
,
0000
0000
0000
0000
,
0000
0000
0000
0000
,
0000
0000
0000
0000
,
0001
0000
0000
1000
0001
0000
0000
0000
,
0001
0000
0000
1000
0001
0000
0000
0000
,
0001
0000
0000
1000
0001
0000
0000
0000
,
0001
0000
0000
1000
0001
0000
0000
0000
,
0010
1000
0100
1000
,
0010
0000
0100
0010
0100
0000
0001
0000
,
1000
0100
0010
0010
,
0100
0001
1000
0010
,
1000
0100
1000
0001
,
0010
0100
1000
0001
,
0001
1000
0001
0000
0001
1000
0001
0000
,
0010
0010
0010
0010
,
1000
0000
0001
0000
,
0010
0000
2000
0001
,
3001
0000
0010
0000
,
0100
0000
1000
0001
,
0100
0000
0010
0000
,
0100
0001
1000
0000
,
0010
0000
0010
0000
,
0000
0001
1000
0000
1000
1000
0000
0000
,
1000
0001
1000
0100
,
0010
0001
0010
0000
0100
0000
1000
0000
,
0001
0010
0001
0000
,
0010
1000
0001
0000
,
0100
0000
0000
0000
0200
0000
0000
0300
,
0001
0100
1000
0010
,
1000
0000
0001
0010
0001
0000
0100
0000
,
1000
0010
1000
0000
,
0001
0000
1000
0000
,
0010
0000
0100
0000
,
1001
0000
1001
0000
,
0010
0000
0001
0000
,
2000
0000
0000
0000
,
3200
0000
0000
0000
0000
0000
0000
0300
,
0020
0000
0000
0000
0000
0000
0000
0030
,
0002
0000
0000
0003
,
1000
0000
0000
0001
1000
0000
0000
0000
,
0001
0000
0000
1000
0001
0000
0000
0000
,
0001
0000
0000
1000
0001
0000
0000
0000
,
0010
0000
0000
0100
0010
0000
0000
0000
,
0010
0000
0000
1000
0100
0000
0000
0000
,
0100
0000
0000
0010
0001
0000
0000
0000
,
0100
0000
0000
0010
1000
0000
0000
0000
,
0001
0000
0000
1000
0100
0000
0000
0000
,
2002
0000
3003
0000;

//---------------dance-single - BASIC----------------
#NOTES:
     dance-single:
     BASIC:
     easy:
     1:
     0.107,0.172,0.092,0.020,0.000,62.000,9.000,2.000,0.000,0.000:





0000
0000
0000
0000
,
0000
0000
0000
0000
,
0000
0000
0000
0000
,
0000
0000
0000
0000
,
0011
0000
0000
0000
,
1100
0000
0000
0000
,
1010
0000
0000
0000
,
0101
0000
0000
0000
,
0001
1000
0100
0000
,
0000
0000
0100
0000
,
0001
0010
0100
0000
,
0100
0000
0000
0000
,
1000
0010
0100
0000
,
0000
0000
0000
0000
,
0001
0001
0001
0000
,
0000
0000
0000
0000
,
1000
0000
0000
0000
,
0001
0000
0000
0000
,
0001
0000
0000
0000
,
1000
0000
0000
0000
,
1000
0000
0000
0000
,
0001
0000
0000
0000
,
0001
0000
0000
0000
,
1000
0000
0000
0000
,
0100
0000
0010
0100
,
0010
0000
0001
0100
,
0100
0000
1000
0100
,
0100
0000
0010
0000
,
0001
0000
1000
0010
,
0010
0000
0001
0010
,
0010
0000
0100
0000
,
0001
0000
1000
0000
,
0200
0000
0000
0000
,
0000
0000
0000
0000
,
0320
0000
0000
0000
,
0000
0000
0000
0030
,
1000
0000
0000
0000
,
0001
0000
0000
0000
,
0010
0000
0000
0000
,
0100
0000
0000
0000
,
1000
0000
0000
0000
,
0101
0000
0000
0000
,
0010
0000
0000
0000
,
0110
0000
0000
0000
,
1001
0000
0000
0000
,
0100
0000
0000
0000
,
0010
0000
0000
0000
,
1100
0000
0000
0000
,
0101
0000
0000
0000;
